<?xml version="1.0" standalone="no"?>
<!DOCTYPE svg PUBLIC "-//W3C//DTD SVG 1.1//EN" "http://www.w3.org/Graphics/SVG/1.1/DTD/svg11.dtd" >
<svg xmlns="http://www.w3.org/2000/svg" xmlns:xlink="http://www.w3.org/1999/xlink" version="1.1">
<metadata></metadata>
<defs>
<font id="proxima_novaregular" horiz-adv-x="1171" >
<font-face units-per-em="2048" ascent="1618" descent="-430" />
<missing-glyph horiz-adv-x="530" />
<glyph unicode="&#xfb01;" horiz-adv-x="1042" d="M33 854v135h164v76q0 152 78 237q79 85 208 84q92 0 152 -32l-39 -117q-39 23 -88 23q-158 0 -158 -195v-76h201v-135h-201v-854h-153v854h-164zM709 1233q0 43 30 74q31 31 74 31t73 -32q30 -30 30 -73t-30 -73t-73 -30t-74 30t-30 73zM735 0v989h154v-989h-154z" />
<glyph unicode="&#xfb02;" horiz-adv-x="1042" d="M33 854v135h164v76q0 152 78 237q79 85 208 84q92 0 152 -32l-39 -117q-39 23 -88 23q-158 0 -158 -195v-76h201v-135h-201v-854h-153v854h-164zM735 0v1366h154v-1366h-154z" />
<glyph unicode="&#xfb03;" horiz-adv-x="1622" d="M33 854v135h164v76q0 152 77 237q78 84 207 84t211 -75l-63 -99q-53 47 -121 48q-158 0 -158 -195v-76h201v-135h-201v-854h-153v854h-164zM614 854v135h164v76q0 152 79 237t208 84q92 0 152 -32l-39 -117q-39 23 -88 23q-158 0 -158 -195v-76h201v-135h-201v-854h-154 v854h-164zM1288 1233q0 43 31 74t74 31t73 -32q30 -30 29 -73q1 -43 -29 -73t-73 -30t-74 30t-31 73zM1315 0v989h153v-989h-153z" />
<glyph unicode="&#xfb04;" horiz-adv-x="1622" d="M33 854v135h164v76q0 152 77 237q78 84 207 84t211 -75l-63 -99q-53 47 -121 48q-158 0 -158 -195v-76h201v-135h-201v-854h-153v854h-164zM614 854v135h164v76q0 152 79 237t208 84q92 0 152 -32l-39 -117q-39 23 -88 23q-158 0 -158 -195v-76h201v-135h-201v-854h-154 v854h-164zM1315 0v1366h153v-1366h-153z" />
<glyph horiz-adv-x="0" />
<glyph unicode="&#xd;" horiz-adv-x="681" />
<glyph unicode=" "  horiz-adv-x="530" />
<glyph unicode="&#x09;" horiz-adv-x="530" />
<glyph unicode="&#xa0;" horiz-adv-x="530" />
<glyph unicode="!" horiz-adv-x="471" d="M123 93q0 46 33 79t80 33q48 0 80 -33t32 -79q0 -45 -34 -79t-78 -34q-45 0 -79 34t-34 79zM139 1366h193l-33 -983h-127z" />
<glyph unicode="&#x22;" horiz-adv-x="704" d="M111 1298q0 34 26 61q27 27 66 27t67 -28t27 -66l-55 -448h-76q-55 420 -55 454zM408 1298q0 34 27 61q28 27 67 27q40 0 66 -28t26 -66l-55 -448h-76q-55 420 -55 454z" />
<glyph unicode="#" horiz-adv-x="1210" d="M45 371l35 108h219l135 408h-221l33 106h225l123 373h127l-123 -373h225l123 373h125l-125 -373h219l-30 -106h-224l-137 -408h227l-32 -108h-232l-123 -371h-125l125 371h-227l-123 -371h-127l125 371h-217zM424 479h225l137 408h-225z" />
<glyph unicode="$" horiz-adv-x="1214" d="M88 193l102 131q141 -168 365 -193v498q-97 27 -157 49q-180 68 -233 174q-34 66 -34 156q0 156 119 260t305 118v187h125v-189q244 -20 405 -188l-102 -125q-119 131 -303 158v-447q263 -78 350 -168q87 -91 87 -242q-1 -150 -109 -264t-328 -131v-182h-125v182 q-293 18 -467 216zM307 1023q-1 -83 63 -128t185 -80v418q-111 -7 -179 -67t-69 -143zM680 129q135 14 198 82q62 68 62 157t-68 140t-192 88v-467z" />
<glyph unicode="%" horiz-adv-x="1499" d="M64 1048q0 146 92 242t237 96t237 -96t93 -241q0 -145 -92 -241q-93 -95 -238 -95t-237 95q-92 94 -92 240zM186 1048q0 -100 58 -165q58 -66 149 -66q90 0 149 66q58 66 58 166q0 101 -57 167t-149 66t-149 -67q-59 -67 -59 -167zM262 0l873 1366h114l-874 -1366h-113z M776 312q0 144 92 240t236 97q144 0 237 -96q93 -95 93 -241t-92 -242t-236 -95q-146 1 -238 97t-92 240zM897 311q0 -100 58 -166q59 -65 151 -65t149 66t58 165q1 100 -57 167t-150 67t-150 -67t-59 -167z" />
<glyph unicode="&#x26;" horiz-adv-x="1314" d="M76 356q0 146 80 238t221 170q-205 352 -5 532q99 90 239 90t227 -71q86 -72 86 -208t-113 -227q-59 -48 -103 -75t-133 -72q66 -88 160 -194q74 -88 162 -183q90 139 147 314l132 -60q-90 -217 -187 -352q127 -131 266 -258h-213q-41 35 -149 143q-168 -168 -393 -168 q-184 -1 -304 99t-120 282zM240 367q0 -123 80 -194t196 -71q154 0 285 136q-241 251 -359 424q-203 -123 -202 -295zM430 1063q0 -92 82 -232q133 66 202 127q68 60 68 144t-45 125t-121 41t-130 -56q-56 -56 -56 -149z" />
<glyph unicode="'" horiz-adv-x="407" d="M111 1298q0 34 26 61q27 27 66 27t67 -28t27 -66l-55 -448h-76q-55 420 -55 454z" />
<glyph unicode="(" horiz-adv-x="507" d="M90 498q0 508 289 905l94 -70q-109 -213 -162 -403t-53 -431t53 -433t162 -402l-94 -72q-289 398 -289 906z" />
<glyph unicode=")" horiz-adv-x="507" d="M35 -336q109 210 162 402t53 433t-53 431t-162 403l94 70q289 -397 289 -905t-289 -906z" />
<glyph unicode="*" horiz-adv-x="696" d="M70 985l209 107l-209 106l45 82l198 -129l-12 235h94l-12 -235l197 129l47 -82l-209 -106l209 -107l-47 -80l-197 127l12 -235h-94l12 235l-198 -127z" />
<glyph unicode="+" horiz-adv-x="1021" d="M59 637v106h394v424h116v-424h394v-106h-394v-436h-116v436h-394z" />
<glyph unicode="," horiz-adv-x="471" d="M117 -197q51 33 89 87t44 104q-8 -4 -39 -4t-59 30t-29 74q0 45 32 78q31 33 81 33t87 -42t37 -123t-46 -164t-119 -136z" />
<glyph unicode="-" horiz-adv-x="614" d="M61 428v135h492v-135h-492z" />
<glyph unicode="." horiz-adv-x="473" d="M123 92q0 47 33 80t80 33q48 0 80 -33t32 -80q0 -48 -32 -80t-80 -32q-47 0 -80 32t-33 80z" />
<glyph unicode="/" horiz-adv-x="606" d="M0 -41l485 1448h121l-485 -1448h-121z" />
<glyph unicode="0" horiz-adv-x="1253" d="M104 682q0 131 30 252q69 278 254 390q104 62 238 62t238 -62t164 -166t91 -224q30 -121 30 -252t-30 -252t-90 -225q-61 -104 -165 -167t-238 -63q-134 1 -238 63t-164 166t-90 226q-30 121 -30 252zM279 682q1 -147 31 -266t112 -204t205 -85t205 85t112 204 q31 119 31 266t-31 266t-113 203q-83 84 -205 84t-204 -84q-145 -149 -143 -469z" />
<glyph unicode="1" horiz-adv-x="694" d="M43 1014l342 352h150v-1366h-170v1143l-220 -234z" />
<glyph unicode="2" horiz-adv-x="1204" d="M109 1171q164 215 495 215q166 0 302 -104t136 -296t-163 -381q-164 -189 -500 -453h670v-152h-938v137q419 328 589 506t170 342q0 123 -85 186t-201 64q-236 0 -371 -172z" />
<glyph unicode="3" horiz-adv-x="1140" d="M59 201l101 106q62 -82 162 -131t233 -49t219 70q86 69 86 189t-91 179t-231 59t-159 -1v155q23 -2 151 -2t218 56t90 168q0 110 -87 172t-219 63q-207 0 -360 -166l-94 107q172 211 469 210q203 0 332 -97t129 -265q0 -135 -90 -217t-203 -100q113 -13 214 -101 t101 -250t-132 -271q-132 -110 -353 -110q-164 -1 -291 63t-195 163z" />
<glyph unicode="4" horiz-adv-x="1142" d="M66 346v141l585 879h234v-870h192v-150h-192v-346h-170v346h-649zM236 496h479v712z" />
<glyph unicode="5" horiz-adv-x="1208" d="M135 195l105 114q141 -182 376 -182q139 0 228 84q88 84 88 213t-87 210t-227 81q-182 0 -315 -127l-125 43v735h836v-152h-666v-475q126 123 314 123t315 -117t127 -319t-138 -327q-138 -124 -350 -124q-315 0 -481 220z" />
<glyph unicode="6" horiz-adv-x="1210" d="M104 682q0 299 142 502t416 202q238 0 376 -163l-86 -127q-120 139 -298 139t-278 -158t-100 -379v-53q51 82 159 148t229 65q194 0 320 -114t126 -310t-131 -328t-346 -131q-139 -1 -243 57q-188 104 -256 382q-30 123 -30 268zM283 508q12 -152 96 -266 q85 -114 239 -115q154 0 237 90t83 216t-88 202t-206 76q-118 -1 -212 -57q-92 -56 -149 -146z" />
<glyph unicode="7" horiz-adv-x="1054" d="M63 1214v152h932v-117l-559 -1249h-188l551 1214h-736z" />
<glyph unicode="8" horiz-adv-x="1191" d="M106 346q0 129 94 223t232 136q-131 37 -217 119t-86 208q0 172 139 263q140 91 328 91t328 -91t141 -263q0 -125 -87 -208t-218 -119q139 -41 232 -135t93 -224q0 -168 -140 -270t-349 -101t-349 101t-141 270zM279 365q0 -106 92 -172t224 -66t225 66t93 160t-64 156 q-109 104 -253 120q-146 -16 -253 -120q-65 -62 -64 -144zM301 1010q0 -58 33 -104q47 -66 180 -111q41 -15 82 -21q76 11 154 49q143 70 143 180q0 109 -85 171t-212 61q-127 0 -211 -60t-84 -165z" />
<glyph unicode="9" horiz-adv-x="1210" d="M100 930q0 196 131 327t349 132q137 1 241 -57q190 -105 257 -382q30 -123 30 -292q0 -170 -57 -324t-187 -256t-313 -101q-233 0 -379 164l86 127q119 -139 293 -139q131 0 221 82q164 149 164 455q0 35 -2 53q-52 -82 -158 -148t-227 -65q-195 0 -322 114t-127 310z M272 932q0 -127 88 -203t208 -76q120 1 213 57t149 148q-12 136 -88 252q-39 57 -106 92t-150 35q-146 0 -230 -89t-84 -216z" />
<glyph unicode=":" horiz-adv-x="460" d="M123 92q0 47 33 80t80 33q48 0 80 -33t32 -80q0 -48 -32 -80t-80 -32q-47 0 -80 32t-33 80zM123 892q0 46 33 79t80 33q48 0 80 -33t32 -79t-34 -80t-78 -34q-45 0 -79 34t-34 80z" />
<glyph unicode=";" horiz-adv-x="471" d="M117 -195q49 33 88 89t45 104q-8 -4 -39 -4t-59 30t-29 74q0 44 32 78q31 33 81 33t87 -42t37 -124t-46 -164t-119 -135zM123 892q0 46 33 79t80 33q48 0 80 -33t32 -79t-34 -80t-78 -34q-45 0 -79 34t-34 80z" />
<glyph unicode="&#x3c;" horiz-adv-x="1021" d="M59 631v108l904 449v-129l-773 -375l773 -371v-129z" />
<glyph unicode="=" horiz-adv-x="1021" d="M59 432v109h904v-109h-904zM59 827v109h904v-109h-904z" />
<glyph unicode="&#x3e;" horiz-adv-x="1021" d="M59 184v129l772 371l-772 375v129l904 -449v-108z" />
<glyph unicode="?" horiz-adv-x="946" d="M37 1178q160 209 444 208q182 0 292 -91t110 -226q0 -86 -41 -155q-42 -70 -100 -112t-115 -81q-140 -96 -140 -189q0 -61 54 -98l-125 -55q-78 66 -78 153t38 144t92 97t108 77q130 89 131 194q-1 82 -63 136t-177 55q-203 0 -328 -168zM346 92q0 47 34 80t79 33t79 -33 t34 -80t-34 -80q-34 -32 -79 -32t-79 32t-34 80z" />
<glyph unicode="@" horiz-adv-x="1603" d="M72 500q0 328 244 568t569 239q285 1 465 -187t180 -463q0 -225 -106 -354t-248 -129q-82 0 -133 48q-50 48 -54 118v14q-55 -80 -143 -130t-182 -50q-141 0 -228 92q-86 92 -86 242q0 210 148 362t333 152q94 0 163 -45t100 -115l26 127h140l-117 -555q-4 -24 -4 -58 q-1 -34 27 -63t69 -28q79 0 151 92t72 280q0 254 -161 417t-418 163q-295 0 -515 -222t-221 -511q0 -248 166 -414t420 -166q199 0 381 115l37 -53q-201 -129 -426 -129q-279 0 -464 185t-185 458zM498 516q0 -100 55 -164q56 -63 154 -63q176 0 303 184l59 285 q-21 57 -75 103t-136 46q-150 0 -255 -119t-105 -272z" />
<glyph unicode="A" horiz-adv-x="1347" d="M18 0l551 1366h211l549 -1366h-194l-121 305h-680l-121 -305h-195zM385 455h580l-291 737z" />
<glyph unicode="B" horiz-adv-x="1288" d="M160 0v1366h608q176 0 280 -96q103 -95 103 -233q0 -143 -70 -227q-70 -85 -170 -105q109 -17 188 -115t79 -221q0 -165 -106 -267t-290 -102h-622zM330 152h420q120 0 186 63t66 167t-67 172q-67 69 -185 69h-420v-471zM330 774h409q113 0 174 62t62 157q-1 97 -63 159 t-173 62h-409v-440z" />
<glyph unicode="C" horiz-adv-x="1384" d="M104 682q0 311 202 509t501 198q330 0 518 -271l-141 -80q-58 90 -160 144t-217 55q-227 0 -377 -156q-150 -157 -150 -399t152 -398q150 -156 375 -157q115 0 216 55t161 144l143 -78q-199 -273 -509 -273t-512 198t-202 509z" />
<glyph unicode="D" horiz-adv-x="1433" d="M160 0v1366h467q313 0 507 -195t194 -491t-194 -488q-192 -192 -507 -192h-467zM330 152h297q242 0 383 152t141 379q0 228 -139 380q-138 151 -382 151h-3h-297v-1062z" />
<glyph unicode="E" horiz-adv-x="1165" d="M160 0v1366h895v-152h-725v-440h710v-151h-710v-471h725v-152h-895z" />
<glyph unicode="F" horiz-adv-x="1128" d="M160 0v1366h895v-152h-725v-440h710v-151h-710v-623h-170z" />
<glyph unicode="G" horiz-adv-x="1460" d="M104 682q0 313 202 510t514 197t517 -254l-135 -86q-66 86 -171 137t-224 51q-227 0 -377 -156q-150 -157 -150 -399t152 -398q150 -156 375 -157q113 0 211 44t158 103v277h-471v151h638v-491q-209 -238 -521 -238t-515 198t-203 511z" />
<glyph unicode="H" horiz-adv-x="1458" d="M160 0v1366h170v-588h798v588h170v-1366h-170v627h-798v-627h-170z" />
<glyph unicode="I" horiz-adv-x="489" d="M160 0v1366h170v-1366h-170z" />
<glyph unicode="J" horiz-adv-x="972" d="M23 133l90 129q109 -135 245 -135t210 79t75 208v952h170v-954q-1 -213 -121 -325t-327 -112t-342 158z" />
<glyph unicode="K" horiz-adv-x="1230" d="M160 0v1366h170v-704l604 704h213l-569 -647l620 -719h-213l-518 614l-137 -155v-459h-170z" />
<glyph unicode="L" horiz-adv-x="1009" d="M137 0v1366h170v-1214h635v-152h-805z" />
<glyph unicode="M" horiz-adv-x="1656" d="M160 0v1366h243l426 -1053l424 1053h244v-1366h-170v1149l-463 -1149h-69l-465 1149v-1149h-170z" />
<glyph unicode="N" horiz-adv-x="1449" d="M160 0v1366h174l786 -1067v1067h170v-1366h-164l-796 1090v-1090h-170z" />
<glyph unicode="O" horiz-adv-x="1566" d="M104 682q0 305 190 506t488 201q300 0 490 -201t190 -506t-190 -506t-490 -201q-299 0 -488 201t-190 506zM281 682q0 -242 137 -398t363 -157q226 0 366 157q139 156 139 398t-139 398t-365 157q-226 0 -364 -156q-137 -157 -137 -399z" />
<glyph unicode="P" horiz-adv-x="1202" d="M160 0v1366h549q199 0 313 -119t115 -293q0 -174 -116 -292t-312 -119h-379v-543h-170zM330 694h358q121 0 197 73t76 187t-76 188q-75 72 -194 72h-3h-358v-520z" />
<glyph unicode="Q" horiz-adv-x="1566" d="M104 682q0 305 190 506t488 201q300 0 490 -201t190 -506t-188 -506l129 -137l-117 -102l-133 141q-160 -103 -371 -103q-299 0 -488 201t-190 506zM281 682q0 -242 137 -398t364 -157q145 0 260 70l-194 211l119 100l192 -209q127 157 127 391t-139 390t-365 157 q-226 0 -364 -156q-137 -157 -137 -399z" />
<glyph unicode="R" horiz-adv-x="1247" d="M160 0v1366h549q190 0 310 -113t120 -297q0 -179 -103 -282q-104 -104 -254 -117l369 -557h-201l-346 543h-274v-543h-170zM330 692h358q121 0 198 74t77 190t-77 187q-76 71 -195 71h-3h-358v-522z" />
<glyph unicode="S" horiz-adv-x="1200" d="M78 193l102 131q170 -197 428 -197q166 0 244 72t78 160t-60 142t-150 79q-263 74 -371 115q-228 88 -228 313q0 168 133 274t338 107q301 0 483 -193l-102 -125q-145 164 -395 164q-123 0 -202 -60q-79 -61 -79 -145t60 -131q59 -47 149 -70q221 -57 390 -128 q89 -38 150 -121q60 -84 60 -203q0 -166 -124 -284t-380 -118q-332 0 -524 218z" />
<glyph unicode="T" horiz-adv-x="1167" d="M66 1214v152h1036v-152h-434v-1214h-170v1214h-432z" />
<glyph unicode="U" horiz-adv-x="1435" d="M160 530v836h172v-831q0 -190 99 -299t285 -109t288 109q100 109 100 299v831h172v-834q0 -260 -144 -408t-414 -149q-270 1 -414 149t-144 406z" />
<glyph unicode="V" horiz-adv-x="1347" d="M18 1366h195l461 -1180l461 1180h194l-549 -1366h-211z" />
<glyph unicode="W" horiz-adv-x="1808" d="M29 1366h188l303 -1139l314 1139h141l313 -1139l301 1139h191l-391 -1366h-185l-301 1102l-301 -1102h-184z" />
<glyph unicode="X" horiz-adv-x="1335" d="M25 0l532 700l-502 666h207l406 -545l403 545h209l-502 -664l533 -702h-207l-436 582l-437 -582h-206z" />
<glyph unicode="Y" horiz-adv-x="1282" d="M18 1366h199l424 -635l424 635h199l-537 -788v-578h-170v578z" />
<glyph unicode="Z" horiz-adv-x="1198" d="M98 0v141l768 1073h-768v152h987v-141l-770 -1073h785v-152h-1002z" />
<glyph unicode="[" horiz-adv-x="497" d="M82 -389v1778h381v-113h-260v-1552h260v-113h-381z" />
<glyph unicode="\" horiz-adv-x="606" d="M0 1407h121l485 -1448h-121z" />
<glyph unicode="]" horiz-adv-x="497" d="M35 -276h262v1552h-262v113h383v-1778h-383v113z" />
<glyph unicode="^" horiz-adv-x="884" d="M39 682l346 684h117l344 -684h-127l-277 571l-276 -571h-127z" />
<glyph unicode="_" horiz-adv-x="1155" d="M-6 -82h1167v-113h-1167v113z" />
<glyph unicode="`" horiz-adv-x="462" d="M0 1434h160l303 -295h-117z" />
<glyph unicode="a" horiz-adv-x="1081" d="M100 306q0 155 102 239t242 84q209 0 328 -133v178q0 96 -70 151t-180 56q-178 0 -303 -138l-72 107q158 164 396 164q170 0 276 -82t107 -252v-680h-154v113q-121 -137 -328 -138q-135 0 -239 88q-105 88 -105 243zM256 302q0 -96 68 -156t178 -60q182 0 270 123v188 q-90 121 -270 121q-110 0 -178 -60t-68 -156z" />
<glyph unicode="b" horiz-adv-x="1177" d="M154 0v1366h153v-526q129 174 330 174t323 -142q121 -141 121 -376q0 -240 -122 -380q-121 -140 -323 -140t-329 171v-147h-153zM307 268q41 -66 124 -110t173 -45q145 0 232 106q86 107 86 275t-86 276q-85 107 -229 107h-3q-90 -1 -173 -47t-124 -113v-449z" />
<glyph unicode="c" horiz-adv-x="1015" d="M96 496q0 224 137 370q137 148 361 148t358 -172l-102 -92q-92 127 -249 127t-251 -108q-94 -109 -94 -275t94 -274t249 -108t251 130l102 -95q-133 -172 -357 -172q-223 1 -361 149t-138 372z" />
<glyph unicode="d" horiz-adv-x="1177" d="M96 493q0 237 123 379t323 142t328 -174v526h154v-1366h-154v147q-126 -172 -328 -172q-202 1 -324 141t-122 377zM256 494q0 -168 86 -274t233 -107q88 0 171 46t124 111v447q-41 67 -124 113t-171 47q-147 0 -233 -108q-86 -107 -86 -275z" />
<glyph unicode="e" horiz-adv-x="1153" d="M96 488q0 224 140 376q140 150 353 150q214 0 342 -151t128 -380v-39h-799q10 -145 106 -243q96 -99 264 -99t292 127l73 -100q-157 -154 -387 -154q-230 1 -370 145q-142 144 -142 368zM258 559h649q-2 125 -86 226t-235 101q-150 0 -236 -100t-92 -227z" />
<glyph unicode="f" horiz-adv-x="581" d="M33 854v135h164v76q0 152 77 237q78 84 207 84t211 -75l-63 -99q-53 47 -121 48q-158 0 -158 -195v-76h201v-135h-201v-854h-153v854h-164z" />
<glyph unicode="g" horiz-adv-x="1177" d="M96 500q0 236 122 374t323 140q201 0 329 -174v149h154v-975q0 -217 -134 -316t-339 -99q-129 1 -221 33t-178 116l77 111q113 -133 322 -133q135 0 227 70t92 218v150q-57 -80 -145 -128t-188 -48q-197 0 -319 138t-122 374zM256 501q0 -167 86 -271t233 -105 q88 0 170 46t125 114v434q-43 65 -125 111t-170 47q-147 -1 -233 -105t-86 -271z" />
<glyph unicode="h" horiz-adv-x="1130" d="M156 0v1366h153v-520q55 70 151 119t202 49q315 0 315 -316v-698h-154v651q0 125 -57 175q-58 50 -154 50t-177 -44q-81 -46 -126 -109v-723h-153z" />
<glyph unicode="i" horiz-adv-x="460" d="M127 1233q0 43 31 74q32 31 74 31t72 -32q30 -30 30 -73t-30 -73t-73 -30t-73 30t-31 73zM154 0v989h153v-989h-153z" />
<glyph unicode="j" horiz-adv-x="460" d="M-201 -328l54 115q61 -61 138 -61t120 44t43 134v1085h153v-1085q0 -147 -76 -226t-208 -79t-224 73zM127 1233q0 43 31 74q32 31 74 31t72 -32q30 -30 30 -73t-30 -73t-73 -30t-73 30t-31 73z" />
<glyph unicode="k" horiz-adv-x="1052" d="M154 0v1366h153v-903l520 526h195l-438 -448l440 -541h-197l-354 444l-166 -161v-283h-153z" />
<glyph unicode="l" horiz-adv-x="460" d="M154 0v1366h153v-1366h-153z" />
<glyph unicode="m" horiz-adv-x="1654" d="M154 0v989h153v-143q39 59 130 113q91 55 195 55t171 -51q68 -51 90 -134q45 74 137 129t195 56q276 0 276 -299v-715h-153v672q0 205 -183 205q-73 0 -147 -44t-115 -108v-725h-153v672q0 205 -183 205h-3q-71 0 -142 -45q-72 -46 -115 -109v-723h-153z" />
<glyph unicode="n" horiz-adv-x="1130" d="M154 0v989h153v-143q57 70 153 119t202 49q313 0 313 -320v-694h-152v647q1 227 -211 229q-98 0 -178 -44q-80 -46 -127 -109v-723h-153z" />
<glyph unicode="o" d="M96 496q0 221 134 369q134 149 356 149t355 -148q134 -148 134 -370q0 -221 -134 -371t-355 -150t-356 150q-134 150 -134 371zM258 496q0 -160 88 -272q87 -111 237 -111h2.5h3.5q150 0 237 111t87 268q0 164 -88 274q-87 110 -239 111q-152 0 -240 -111 q-88 -110 -88 -270z" />
<glyph unicode="p" d="M154 -377v1366h153v-147q55 78 143 125t191 47q197 0 319 -140t121 -378q1 -238 -121 -380q-121 -141 -319 -141h-3q-200 0 -331 175v-527h-153zM307 272q41 -68 124 -114q81 -45 167 -45h4q145 0 232 107q86 108 86 276t-86 274t-232 107q-88 -1 -171 -47t-124 -111 v-447z" />
<glyph unicode="q" d="M90 496q0 238 122 378t318 140q102 0 190 -47t144 -125v147h154v-1366h-154v527q-131 -175 -331 -175h-3q-197 0 -318 141q-122 142 -122 380zM252 496q0 -168 86 -276q85 -107 228 -107h3q88 0 171 46t124 113v447q-41 65 -124 111t-171 47q-145 -1 -231 -107t-86 -274z " />
<glyph unicode="r" horiz-adv-x="675" d="M154 0v989h153v-158q141 180 330 181v-158q-37 4 -59 4q-72 0 -154 -48t-117 -110v-700h-153z" />
<glyph unicode="s" horiz-adv-x="952" d="M70 131l77 111q51 -58 141 -100t192 -42q104 0 166 47t62 118t-62 109q-64 38 -154 57t-180 45t-152 88q-64 62 -64 174t98 194t269 82q227 0 366 -144l-71 -106q-104 125 -295 125q-99 0 -159 -44q-60 -45 -60 -103q0 -106 157 -137q157 -32 296 -88q69 -28 114 -90 t45 -153q0 -131 -102 -215t-285 -84q-250 0 -399 156z" />
<glyph unicode="t" horiz-adv-x="602" d="M20 854v135h164v271h156v-271h201v-135h-201v-614q0 -128 108 -128q56 0 95 44l45 -117q-67 -64 -182 -64q-221 0 -222 232v647h-164z" />
<glyph unicode="u" horiz-adv-x="1128" d="M154 291v698h153v-651q0 -225 212 -225q97 0 177 43t125 106v727h154v-989h-154v139q-61 -71 -154 -117t-198 -47q-315 0 -315 316z" />
<glyph unicode="v" horiz-adv-x="1003" d="M6 989h168l328 -811l329 811h166l-411 -989h-168z" />
<glyph unicode="w" horiz-adv-x="1503" d="M25 989h159l242 -788l260 788h133l258 -788l242 788h162l-316 -989h-155l-258 795l-258 -795h-154z" />
<glyph unicode="x" horiz-adv-x="997" d="M25 0l378 508l-358 481h178l275 -377l276 377h176l-358 -481l381 -508h-176l-299 406l-297 -406h-176z" />
<glyph unicode="y" horiz-adv-x="1003" d="M6 989h168l328 -811l329 811h166l-495 -1190q-82 -197 -291 -200q-64 0 -111 14l23 139q37 -16 87 -16t85 22t59 82l66 150z" />
<glyph unicode="z" horiz-adv-x="966" d="M106 0v121l545 733h-545v135h746v-117l-549 -737h557v-135h-754z" />
<glyph unicode="{" horiz-adv-x="534" d="M10 449v102q53 0 81 40t28 101v420q0 123 76 200t178 77h127v-113h-127q-55 0 -95 -46t-40 -116v-434q0 -141 -93 -180q92 -39 93 -181v-432q0 -71 40 -117t95 -46h127v-113h-127q-102 0 -178 77t-76 197v422q0 61 -28 101t-81 41z" />
<glyph unicode="|" horiz-adv-x="432" d="M160 -41v1448h112v-1448h-112z" />
<glyph unicode="}" horiz-adv-x="534" d="M35 -276h125q55 0 96 47t41 116v432q0 141 92 181q-92 39 -92 180v434q0 70 -40 116t-97 46h-125v113h125q102 0 179 -77t77 -200v-420q0 -61 28 -101t78 -40v-102q-51 0 -79 -40t-27 -102v-422q0 -121 -77 -197t-179 -77h-125v113z" />
<glyph unicode="~" horiz-adv-x="1030" d="M55 879q35 355 158 446q53 39 125 39t120 -40t72 -98t42 -116q45 -138 120 -137q129 0 168 393l113 -12q-20 -212 -72 -335q-63 -153 -208 -153q-73 0 -121 40t-72 98t-42 114q-46 137 -120 137q-129 0 -168 -391z" />
<glyph unicode="&#xa1;" horiz-adv-x="471" d="M123 897q0 45 33 79t79 34q47 0 79 -33t32 -79t-33 -79t-77 -33t-79 33q-34 33 -34 78zM139 -377l31 983h129l33 -983h-193z" />
<glyph unicode="&#xa2;" horiz-adv-x="1015" d="M96 495q0 202 116 344t304 169v149h121v-145q193 -16 315 -170l-102 -92q-82 113 -213 124v-759q129 12 213 127l102 -95q-119 -154 -315 -170v-182h-121v187q-188 25 -304 168t-116 345zM256 496q0 -144 70 -246t190 -129v747q-120 -27 -190 -128t-70 -244z" />
<glyph unicode="&#xa3;" horiz-adv-x="1060" d="M41 549v110h215q-57 66 -79 94q-23 29 -51 95t-28 135q0 168 135 286t324 117q139 0 248 -60t166 -169l-137 -82q-27 70 -99 119q-71 49 -177 49t-190 -72t-85 -180q0 -108 53 -189q16 -26 57 -76t53 -67h308v-110h-250q14 -47 14 -88q0 -160 -156 -271q55 18 115 18 t150 -41q90 -42 149 -42q60 0 114 26t77 56l73 -137q-100 -96 -276 -97q-96 0 -194 47q-98 48 -179 48q-80 0 -235 -82l-60 129q131 57 201 138t70 157t-31 139h-295z" />
<glyph unicode="&#xa4;" horiz-adv-x="1069" d="M74 281l114 114q-102 129 -102 289t102 285l-114 116l57 58l117 -115q121 102 285 102t288 -102l115 115l59 -58l-114 -116q102 -125 102 -285t-102 -289l114 -114l-59 -60l-115 117q-123 -104 -287 -104t-286 104l-117 -117zM184 682q0 -146 102 -248t248 -102t248 102 t103 248q-1 146 -103 248t-247 102t-247 -102t-104 -248z" />
<glyph unicode="&#xa5;" horiz-adv-x="1282" d="M18 1366h199l424 -635l424 635h199l-465 -682h440v-106h-512v-220h512v-108h-512v-250h-170v250h-512v108h512v220h-512v106h438z" />
<glyph unicode="&#xa6;" horiz-adv-x="432" d="M160 -41v647h112v-647h-112zM160 760v647h112v-647h-112z" />
<glyph unicode="&#xa7;" horiz-adv-x="958" d="M70 -6l77 100q121 -145 322 -145q106 0 173 47t67 123q1 75 -63 115t-154 62t-180 48t-152 89q-64 63 -64 163t67 167t167 93q-233 74 -234 254q0 117 100 197t267 79q238 0 366 -145l-71 -92q-102 123 -289 123q-101 0 -163 -45t-62 -109q0 -112 157 -146t296 -87 q69 -27 114 -89t45 -151q0 -180 -188 -260q188 -74 188 -250q0 -141 -106 -221t-281 -80q-236 0 -399 160zM244 620q0 -62 45 -101q45 -38 105 -58t141 -37q170 74 170 203q-1 79 -63 119t-169 67q-229 -59 -229 -193z" />
<glyph unicode="&#xa8;" horiz-adv-x="557" d="M-29 1237q0 39 28 67t68 28q39 0 67 -28t28 -67t-28 -67t-66 -28t-68 28q-29 28 -29 67zM395 1237q0 39 28 67q27 28 67 28t68 -28t28 -67t-29 -67t-68 -28t-67 28t-27 67z" />
<glyph unicode="&#xa9;" horiz-adv-x="1593" d="M90 685q0 292 207 499t500 207t499 -207t207 -500q0 -293 -207 -500q-208 -207 -500 -207t-499 208t-207 500zM154 686q0 -266 189 -456t455 -189q266 -1 454 189t188 455t-188 453t-454 189q-264 0 -454 -188q-190 -187 -190 -453zM375 688q0 186 124 310t306 124 t295 -133l-51 -51q-39 53 -108 85t-140 32q-143 1 -247 -103t-103 -264q0 -160 104 -266t246 -107q75 0 141 33t107 86l53 -51q-117 -135 -298 -135t-305 127t-124 313z" />
<glyph unicode="&#xaa;" horiz-adv-x="774" d="M84 865q0 99 69 155t160 55q139 0 222 -86v113q1 61 -47 97t-117 36q-121 0 -201 -94l-53 78q106 109 268 108q117 0 192 -55t74 -172v-432h-116v71q-84 -88 -222 -88q-89 -1 -159 57t-70 157zM203 864q-1 -60 43 -98q44 -37 112 -37q115 0 177 78v115q-61 78 -177 77 q-68 1 -112 -37t-43 -98z" />
<glyph unicode="&#xab;" horiz-adv-x="899" d="M61 498l328 362h154l-328 -362l328 -369h-154zM356 498l328 362h154l-328 -362l328 -369h-154z" />
<glyph unicode="&#xac;" horiz-adv-x="1032" d="M59 827v109h904v-504h-113v395h-791z" />
<glyph unicode="&#xad;" horiz-adv-x="614" d="M61 428v135h492v-135h-492z" />
<glyph unicode="&#xae;" horiz-adv-x="1011" d="M72 952q0 180 127 308t308 126q181 0 307 -126t126 -307t-127 -308t-307 -127t-307 127t-127 307zM131 954q0 -156 110 -266q109 -110 265 -110t266 110t109 266q0 156 -110 265q-109 109 -265 109t-266 -110q-110 -108 -109 -264zM340 702v498h203q65 0 111 -42t46 -112 t-46 -107q-46 -38 -81 -38l134 -199h-82l-129 197h-90v-197h-66zM406 958h137q33 0 61 27t29 65q0 38 -28 66t-62 27h-137v-185z" />
<glyph unicode="&#xaf;" horiz-adv-x="743" d="M0 1210v99h743v-99h-743z" />
<glyph unicode="&#xb0;" horiz-adv-x="593" d="M47 1136q0 104 73 177t176 73t177 -74t74 -176t-74 -176t-177 -74t-176 74q-73 72 -73 176zM147 1136q0 -62 43 -106q44 -44 106 -43t108 45t45 105q1 61 -45 106t-107 45t-105 -45t-45 -107z" />
<glyph unicode="&#xb1;" horiz-adv-x="1021" d="M59 0v109h904v-109h-904zM59 664v106h394v424h116v-424h394v-106h-394v-437h-116v437h-394z" />
<glyph unicode="&#xb2;" horiz-adv-x="794" d="M100 1565q102 129 301 129q123 0 208 -62t85 -177t-102 -229t-309 -263h415v-101h-596v92q256 184 362 290t107 190q0 84 -51 122t-123 37t-133 -31t-96 -75z" />
<glyph unicode="&#xb3;" horiz-adv-x="794" d="M86 981l68 78q88 -111 237 -111q88 0 138 39t51 105q0 141 -213 141q-70 0 -82 -2v102q14 -2 82 -2q201 0 200 131q0 60 -52 96t-132 35q-131 0 -223 -98l-64 72q113 127 299 127q131 0 212 -60t81 -150q0 -91 -55 -139t-127 -59q72 -8 134 -60t62 -150q0 -97 -82 -163 t-227 -65q-211 0 -307 133z" />
<glyph unicode="&#xb4;" horiz-adv-x="462" d="M0 1139l303 295h160l-346 -295h-117z" />
<glyph unicode="&#xb5;" horiz-adv-x="1128" d="M154 -377v1366h153v-651q-1 -125 57 -177t154 -52t177 45t126 108v727h154v-989h-154v139q-61 -71 -154 -117t-193 -46t-167 28v-381h-153z" />
<glyph unicode="&#xb6;" horiz-adv-x="919" d="M56 1014q0 146 102 248q104 104 250 104h366v-1571h-92v1479h-182v-1479h-92v867q-145 0 -249 103q-103 103 -103 249z" />
<glyph unicode="&#xb7;" horiz-adv-x="473" d="M123 501q0 46 34 79q34 32 79 32q44 0 78 -32t34 -79q0 -46 -33 -79t-79 -33t-80 33q-33 33 -33 79z" />
<glyph unicode="&#xb8;" horiz-adv-x="419" d="M0 -330l39 78q74 -59 164 -59q53 1 89 23t36 63q0 72 -76 71q-49 0 -78 -34l-68 38l64 173h92l-53 -136q29 23 82 23t91 -38t38 -106t-60 -112q-60 -45 -172 -45q-110 0 -188 61z" />
<glyph unicode="&#xb9;" horiz-adv-x="481" d="M29 1456l221 225h108v-819h-122v660l-136 -142z" />
<glyph unicode="&#xba;" horiz-adv-x="829" d="M82 990q0 142 91 240t242 97q151 0 241 -97q90 -96 92 -240q0 -144 -91 -242t-241 -97t-242 99t-92 240zM205 988q0 -103 56 -171q57 -67 154 -67t154 68t58 171q1 102 -57 170t-155 68t-153 -68t-57 -171z" />
<glyph unicode="&#xbb;" horiz-adv-x="899" d="M61 129l328 369l-328 362h154l328 -362l-328 -369h-154zM356 129l328 369l-328 362h154l328 -362l-328 -369h-154z" />
<glyph unicode="&#xbc;" horiz-adv-x="1576" d="M29 1141l221 225h108v-819h-122v659l-136 -141zM223 0l873 1366h112l-874 -1366h-111zM860 205v92l354 522h170v-514h117v-100h-117v-205h-122v205h-402zM983 305h279v406z" />
<glyph unicode="&#xbd;" horiz-adv-x="1652" d="M29 1141l221 225h108v-819h-122v659l-136 -141zM223 0l873 1366h112l-874 -1366h-111zM958 702q102 129 302 129q124 0 208 -61t84 -177q0 -115 -102 -229t-309 -264h415v-100h-595v92q256 184 362 290q107 106 107 190t-52 122t-123 37q-72 0 -133 -31t-96 -75z" />
<glyph unicode="&#xbe;" horiz-adv-x="1798" d="M86 666l68 77q88 -111 237 -110q88 0 138 39t51 104q0 141 -213 142q-70 0 -82 -3v103q14 -2 82 -2q201 0 200 131q0 61 -52 96t-132 35q-131 0 -223 -98l-64 71q113 127 299 127q131 0 212 -59t81 -151t-55 -139q-55 -48 -127 -58q72 -9 134 -61t62 -149t-82 -163 t-227 -66q-211 0 -307 134zM444 0l873 1366h113l-875 -1366h-111zM1083 205v92l355 522h170v-514h116v-100h-116v-205h-123v205h-402zM1206 305h279v406z" />
<glyph unicode="&#xbf;" horiz-adv-x="806" d="M63 -84q0 86 41 155q40 69 98 111t116 82q141 95 141 189q0 61 -53 98l124 55q78 -66 78 -153t-38 -144t-92 -97t-108 -77q-130 -89 -130 -194q0 -83 62 -137t177 -54q203 0 328 166l102 -109q-160 -209 -444 -208q-182 0 -292 91t-110 226zM375 897q-1 45 33 79t79 34 t79 -34t34 -79t-34 -79t-79 -34t-79 34t-33 79z" />
<glyph unicode="&#xc0;" horiz-adv-x="1347" d="M18 0l551 1366h211l549 -1366h-194l-121 305h-680l-121 -305h-195zM348 1786h160l303 -295h-117zM385 455h580l-291 737z" />
<glyph unicode="&#xc1;" horiz-adv-x="1347" d="M18 0l551 1366h211l549 -1366h-194l-121 305h-680l-121 -305h-195zM385 455h580l-291 737zM541 1491l303 295h160l-347 -295h-116z" />
<glyph unicode="&#xc2;" horiz-adv-x="1347" d="M18 0l551 1366h211l549 -1366h-194l-121 305h-680l-121 -305h-195zM385 455h580l-291 737zM406 1491l194 295h148l200 -295h-104l-170 217l-164 -217h-104z" />
<glyph unicode="&#xc3;" horiz-adv-x="1347" d="M18 0l551 1366h211l549 -1366h-194l-121 305h-680l-121 -305h-195zM354 1499q0 123 52 199t147 76q49 0 87 -30t57 -65q51 -94 101 -94t78 44t27 132h92q0 -123 -52 -199t-146 -75q-49 0 -87 30q-38 31 -58 65q-54 95 -102 94t-76 -45t-28 -132h-92zM385 455h580 l-291 737z" />
<glyph unicode="&#xc4;" horiz-adv-x="1347" d="M18 0l551 1366h211l549 -1366h-194l-121 305h-680l-121 -305h-195zM368 1584q0 38 28 66t68 28t68 -28t27 -67q0 -39 -28 -67q-29 -28 -67 -27q-38 0 -67 28q-29 29 -29 67zM385 455h580l-291 737zM792 1584q0 38 28 66t68 28t68 -28t27 -67q0 -39 -29 -67 q-30 -28 -68 -27q-38 0 -66 28q-28 29 -28 67z" />
<glyph unicode="&#xc5;" horiz-adv-x="1347" d="M18 0l551 1366h211l549 -1366h-194l-121 305h-680l-121 -305h-195zM385 455h580l-291 737zM473 1620q1 84 61 143t142 59t140 -58q58 -60 58 -144t-58 -144t-140 -59q-82 -1 -142 59t-61 144zM555 1620q0 -49 35 -85t85 -36t85 36t35 85t-35 85t-85 36t-85 -36t-35 -85z " />
<glyph unicode="&#xc6;" horiz-adv-x="1941" d="M14 0l852 1366h963v-152h-725v-440h711v-151h-711v-471h725v-152h-895v305h-537l-188 -305h-195zM479 455h455v737z" />
<glyph unicode="&#xc7;" horiz-adv-x="1384" d="M104 692q0 302 202 499q202 198 501 198q330 0 518 -271l-141 -80q-58 90 -160 144t-217 55q-227 0 -377 -156q-150 -157 -150 -399t152 -398q150 -156 375 -157q115 0 216 55t161 144l143 -78q-195 -264 -500 -273l-30 -79q29 22 81 22t92 -38q38 -38 38 -106t-60 -112 q-60 -45 -172 -45t-188 61l39 78q74 -59 164 -59q53 1 89 23t35 63q0 72 -75 72q-49 0 -78 -35l-68 39l43 121q-274 22 -453 216q-180 194 -180 496z" />
<glyph unicode="&#xc8;" horiz-adv-x="1165" d="M160 0v1366h895v-152h-725v-440h710v-151h-710v-471h725v-152h-895zM281 1786h159l303 -295h-116z" />
<glyph unicode="&#xc9;" horiz-adv-x="1165" d="M160 0v1366h895v-152h-725v-440h710v-151h-710v-471h725v-152h-895zM471 1491l303 295h160l-346 -295h-117z" />
<glyph unicode="&#xca;" horiz-adv-x="1165" d="M160 0v1366h895v-152h-725v-440h710v-151h-710v-471h725v-152h-895zM334 1491l194 295h148l201 -295h-105l-170 217l-164 -217h-104z" />
<glyph unicode="&#xcb;" horiz-adv-x="1165" d="M160 0v1366h895v-152h-725v-440h710v-151h-710v-471h725v-152h-895zM299 1584q0 38 28 66q27 28 67 28t68 -28q27 -28 27 -67q1 -39 -27 -67t-67 -27q-39 0 -67 28q-28 29 -29 67zM723 1584q0 38 28 66q27 28 67 28t68 -28q27 -28 27 -67q-1 -39 -29 -67t-67 -27 q-39 0 -67 28q-28 29 -27 67z" />
<glyph unicode="&#xcc;" horiz-adv-x="489" d="M-84 1786h160l303 -295h-117zM160 0v1366h170v-1366h-170z" />
<glyph unicode="&#xcd;" horiz-adv-x="489" d="M113 1491l303 295h159l-346 -295h-116zM160 0v1366h170v-1366h-170z" />
<glyph unicode="&#xce;" horiz-adv-x="489" d="M-27 1491l195 295h147l201 -295h-104l-170 217l-164 -217h-105zM160 0v1366h170v-1366h-170z" />
<glyph unicode="&#xcf;" horiz-adv-x="489" d="M-64 1584q0 38 28 66t68 28t68 -28t27 -67q0 -39 -28 -67q-29 -28 -67 -27q-38 0 -67 28q-29 29 -29 67zM160 0v1366h170v-1366h-170zM360 1584q0 38 28 66t68 28t68 -28t27 -67q0 -39 -29 -67q-30 -28 -68 -27q-38 0 -66 28q-28 29 -28 67z" />
<glyph unicode="&#xd0;" horiz-adv-x="1490" d="M20 612v125h197v629h467q313 0 507 -195q193 -195 193 -491t-192 -488t-508 -192h-467v612h-197zM387 152h297q242 0 383 152t141 379q0 228 -139 380t-385 151h-297v-477h346v-125h-346v-460z" />
<glyph unicode="&#xd1;" horiz-adv-x="1449" d="M160 0v1366h174l786 -1067v1067h170v-1366h-164l-796 1090v-1090h-170zM401 1499q1 123 53 199t146 76q49 0 87 -30t57 -65q51 -94 101 -94t78 44t27 132h92q0 -123 -52 -199t-146 -75q-49 0 -87 30q-37 31 -57 65q-54 95 -103 94q-48 -1 -76 -45t-27 -132h-93z" />
<glyph unicode="&#xd2;" horiz-adv-x="1566" d="M104 682q0 305 190 506t488 201q300 0 490 -201t190 -506t-190 -506t-490 -201q-299 0 -488 201t-190 506zM281 682q0 -242 137 -398t363 -157q226 0 366 157q139 156 139 398t-139 398t-365 157q-226 0 -364 -156q-137 -157 -137 -399zM463 1786h160l303 -295h-117z" />
<glyph unicode="&#xd3;" horiz-adv-x="1566" d="M104 682q0 305 190 506t488 201q300 0 490 -201t190 -506t-190 -506t-490 -201q-299 0 -488 201t-190 506zM281 682q0 -242 137 -398t363 -157q226 0 366 157q139 156 139 398t-139 398t-365 157q-226 0 -364 -156q-137 -157 -137 -399zM651 1491l303 295h160l-346 -295 h-117z" />
<glyph unicode="&#xd4;" horiz-adv-x="1566" d="M104 682q0 305 190 506t488 201q300 0 490 -201t190 -506t-190 -506t-490 -201q-299 0 -488 201t-190 506zM281 682q0 -242 137 -398t363 -157q226 0 366 157q139 156 139 398t-139 398t-365 157q-226 0 -364 -156q-137 -157 -137 -399zM516 1491l195 295h147l201 -295 h-105l-170 217l-163 -217h-105z" />
<glyph unicode="&#xd5;" horiz-adv-x="1566" d="M104 682q0 305 190 506t488 201q300 0 490 -201t190 -506t-190 -506t-490 -201q-299 0 -488 201t-190 506zM281 682q0 -242 137 -398t363 -157q226 0 366 157q139 156 139 398t-139 398t-365 157q-226 0 -364 -156q-137 -157 -137 -399zM463 1499q0 123 52 199t147 76 q49 0 87 -30t57 -65q51 -94 101 -94q49 0 77 44t28 132h92q0 -123 -52 -199t-147 -75q-49 0 -87 30q-38 31 -57 65q-52 95 -102 94q-104 -2 -104 -177h-92z" />
<glyph unicode="&#xd6;" horiz-adv-x="1566" d="M104 682q0 305 190 506t488 201q300 0 490 -201t190 -506t-190 -506t-490 -201q-299 0 -488 201t-190 506zM281 682q0 -242 137 -398t363 -157q226 0 366 157q139 156 139 398t-139 398t-365 157q-226 0 -364 -156q-137 -157 -137 -399zM475 1584q0 38 28 66q27 28 67 28 t68 -28t28 -67t-28 -67t-67 -27q-39 0 -67 28q-28 29 -29 67zM899 1584q0 38 28 66q27 28 67 28t68 -28t28 -67t-29 -67t-68 -27q-39 0 -67 28q-28 29 -27 67z" />
<glyph unicode="&#xd7;" horiz-adv-x="1021" d="M131 379l305 305l-305 305l76 76l303 -305l305 305l76 -76l-303 -305l303 -305l-76 -76l-305 305l-303 -305z" />
<glyph unicode="&#xd8;" horiz-adv-x="1566" d="M104 682q0 305 190 506t488 201q188 0 342 -86l43 63h138l-86 -129q115 -97 179 -241t64 -314q0 -305 -190 -506t-490 -201q-197 0 -352 93l-45 -68h-137l90 133q-233 201 -234 549zM281 676q0 -250 149 -406l606 901q-115 66 -254 66q-227 1 -364 -155t-137 -406z M518 199q112 -72 264 -72q225 0 365 157q139 158 139 410t-160 408z" />
<glyph unicode="&#xd9;" horiz-adv-x="1435" d="M160 530v836h172v-831q0 -190 99 -299t285 -109t288 109q100 109 100 299v831h172v-834q0 -260 -144 -408t-414 -149q-270 1 -414 149t-144 406zM393 1786h160l303 -295h-117z" />
<glyph unicode="&#xda;" horiz-adv-x="1435" d="M160 530v836h172v-831q0 -190 99 -299t285 -109t288 109q100 109 100 299v831h172v-834q0 -260 -144 -408t-414 -149q-270 1 -414 149t-144 406zM582 1491l303 295h159l-346 -295h-116z" />
<glyph unicode="&#xdb;" horiz-adv-x="1435" d="M160 530v836h172v-831q0 -190 99 -299t285 -109t288 109q100 109 100 299v831h172v-834q0 -260 -144 -408t-414 -149q-270 1 -414 149t-144 406zM457 1491l194 295h148l200 -295h-104l-170 217l-164 -217h-104z" />
<glyph unicode="&#xdc;" horiz-adv-x="1435" d="M160 530v836h172v-831q0 -190 99 -299t285 -109t288 109q100 109 100 299v831h172v-834q0 -260 -144 -408t-414 -149q-270 1 -414 149t-144 406zM412 1584q0 38 27 66q28 28 68 28q39 0 67 -28t28 -67t-28 -67t-66 -27q-38 0 -68 28q-28 29 -28 67zM836 1584q0 38 27 66 q28 28 68 28q39 0 67 -28t28 -67t-29 -67t-67 -27q-38 0 -67 28q-27 29 -27 67z" />
<glyph unicode="&#xdd;" horiz-adv-x="1282" d="M18 1366h199l424 -635l424 635h199l-537 -788v-578h-170v578zM514 1491l303 295h160l-346 -295h-117z" />
<glyph unicode="&#xde;" horiz-adv-x="1202" d="M160 0v1366h170v-244h379q199 0 313 -118t115 -294q0 -175 -116 -293t-312 -118h-379v-299h-170zM330 451h358q121 -1 197 71t76 187t-76 189t-197 73h-358v-520z" />
<glyph unicode="&#xdf;" horiz-adv-x="1222" d="M156 0v1022q0 156 106 260t268 104t268 -70q105 -71 105 -185t-108 -191q-45 -32 -90 -60q-109 -69 -109 -149q0 -57 60 -90t146 -52t174 -46t148 -94t60 -183t-100 -204q-100 -87 -281 -87q-135 0 -219 41t-162 119l78 107q45 -60 125 -100q79 -40 185 -40t165 50 t59 118t-60 106t-146 58t-174 47q-87 27 -147 88q-61 61 -61 149t48 146q48 59 102 90q149 84 149 152q0 69 -61 106t-151 37t-157 -62t-67 -165v-1022h-153z" />
<glyph unicode="&#xe0;" horiz-adv-x="1081" d="M100 306q0 155 102 239t242 84q209 0 328 -133v178q0 96 -70 151t-180 56q-178 0 -303 -138l-72 107q158 164 396 164q170 0 276 -82t107 -252v-680h-154v113q-121 -137 -328 -138q-135 0 -239 88q-105 88 -105 243zM217 1434h160l303 -295h-117zM256 302q0 -96 68 -156 t178 -60q182 0 270 123v188q-90 121 -270 121q-110 0 -178 -60t-68 -156z" />
<glyph unicode="&#xe1;" horiz-adv-x="1081" d="M100 306q0 155 102 239t242 84q209 0 328 -133v178q0 96 -70 151t-180 56q-178 0 -303 -138l-72 107q158 164 396 164q170 0 276 -82t107 -252v-680h-154v113q-121 -137 -328 -138q-135 0 -239 88q-105 88 -105 243zM256 302q0 -96 68 -156t178 -60q182 0 270 123v188 q-90 121 -270 121q-110 0 -178 -60t-68 -156zM412 1139l303 295h159l-346 -295h-116z" />
<glyph unicode="&#xe2;" horiz-adv-x="1081" d="M100 306q0 155 102 239t242 84q209 0 328 -133v178q0 96 -70 151t-180 56q-178 0 -303 -138l-72 107q158 164 396 164q170 0 276 -82t107 -252v-680h-154v113q-121 -137 -328 -138q-135 0 -239 88q-105 88 -105 243zM256 302q0 -96 68 -156t178 -60q182 0 270 123v188 q-90 121 -270 121q-110 0 -178 -60t-68 -156zM279 1139l194 295h148l200 -295h-104l-170 217l-164 -217h-104z" />
<glyph unicode="&#xe3;" horiz-adv-x="1081" d="M100 306q0 155 102 239t242 84q209 0 328 -133v178q0 96 -70 151t-180 56q-178 0 -303 -138l-72 107q158 164 396 164q170 0 276 -82t107 -252v-680h-154v113q-121 -137 -328 -138q-135 0 -239 88q-105 88 -105 243zM223 1147q0 123 52 199t147 75q49 1 87 -29t57 -65 q51 -94 101 -94q105 0 105 176h92q0 -123 -52 -199t-146 -75q-49 -1 -87 29t-58 65q-51 94 -101 94q-49 0 -77 -44t-28 -132h-92zM256 302q0 -96 68 -156t178 -60q182 0 270 123v188q-90 121 -270 121q-110 0 -178 -60t-68 -156z" />
<glyph unicode="&#xe4;" horiz-adv-x="1081" d="M100 306q0 155 102 239t242 84q209 0 328 -133v178q0 96 -70 151t-180 56q-178 0 -303 -138l-72 107q158 164 396 164q170 0 276 -82t107 -252v-680h-154v113q-121 -137 -328 -138q-135 0 -239 88q-105 88 -105 243zM233 1237q0 39 28 67t68 28q39 0 67 -28t28 -67 t-28 -67t-66 -28t-68 28q-29 28 -29 67zM256 302q0 -96 68 -156t178 -60q182 0 270 123v188q-90 121 -270 121q-110 0 -178 -60t-68 -156zM657 1237q0 39 28 67t68 28q39 0 67 -28t28 -67t-29 -67t-67 -28t-67 28q-28 28 -28 67z" />
<glyph unicode="&#xe5;" horiz-adv-x="1081" d="M100 306q0 155 102 239t242 84q209 0 328 -133v178q0 96 -70 151t-180 56q-178 0 -303 -138l-72 107q158 164 396 164q170 0 276 -82t107 -252v-680h-154v113q-121 -137 -328 -138q-135 0 -239 88q-105 88 -105 243zM256 302q0 -96 68 -156t178 -60q182 0 270 123v188 q-90 121 -270 121q-110 0 -178 -60t-68 -156zM342 1323q0 82 60 142q60 61 142 61t141 -60q58 -60 58 -143t-58 -143t-140 -60q-83 0 -143 60t-60 143zM424 1323q0 -49 35 -85t85 -36t85 36t35 85t-35 85t-85 36t-85 -36t-35 -85z" />
<glyph unicode="&#xe6;" horiz-adv-x="1820" d="M100 304q0 153 100 239t244 86q209 0 328 -131v176q0 96 -70 151t-180 56q-178 0 -303 -138l-72 107q158 164 396 164q287 0 336 -217q123 217 378 217q215 0 342 -151t127 -380v-39h-798q10 -145 105 -241q95 -97 265 -97t291 125l74 -102q-159 -154 -407 -154t-396 205 q-145 -205 -407 -205q-141 0 -247 88t-106 241zM256 302q0 -96 69 -156t177 -60q205 0 301 174q-31 72 -31 133q-90 125 -270 125q-110 0 -178 -60t-68 -156zM926 559h649q-2 125 -86 226q-83 101 -235 101t-237 -100t-91 -227z" />
<glyph unicode="&#xe7;" horiz-adv-x="1015" d="M96 502q0 216 137 364t361 148t358 -172l-102 -92q-92 127 -249 127t-251 -108q-94 -109 -94 -275t94 -274t249 -108t251 130l102 -95q-119 -156 -323 -170l-33 -86q29 23 82 23t91 -38t38 -106q-1 -68 -61 -112q-60 -45 -172 -45t-187 61l39 78q74 -59 164 -59 q53 1 89 23t36 63q0 72 -76 71q-49 0 -78 -34l-67 39l45 125q-199 16 -321 161t-122 361z" />
<glyph unicode="&#xe8;" horiz-adv-x="1153" d="M96 488q0 224 140 376q140 150 353 150q214 0 342 -151t128 -380v-39h-799q10 -145 106 -243q96 -99 264 -99t292 127l73 -100q-157 -154 -387 -154q-230 1 -370 145q-142 144 -142 368zM258 559h649q-2 125 -86 226t-235 101q-150 0 -236 -100t-92 -227zM258 1434h160 l303 -295h-117z" />
<glyph unicode="&#xe9;" horiz-adv-x="1153" d="M96 488q0 224 140 376q140 150 353 150q214 0 342 -151t128 -380v-39h-799q10 -145 106 -243q96 -99 264 -99t292 127l73 -100q-157 -154 -387 -154q-230 1 -370 145q-142 144 -142 368zM258 559h649q-2 125 -86 226t-235 101q-150 0 -236 -100t-92 -227zM451 1139 l303 295h159l-346 -295h-116z" />
<glyph unicode="&#xea;" horiz-adv-x="1153" d="M96 488q0 224 140 376q140 150 353 150q214 0 342 -151t128 -380v-39h-799q10 -145 106 -243q96 -99 264 -99t292 127l73 -100q-157 -154 -387 -154q-230 1 -370 145q-142 144 -142 368zM258 559h649q-2 125 -86 226t-235 101q-150 0 -236 -100t-92 -227zM315 1139 l195 295h147l201 -295h-104l-170 217l-164 -217h-105z" />
<glyph unicode="&#xeb;" horiz-adv-x="1153" d="M96 488q0 224 140 376q140 150 353 150q214 0 342 -151t128 -380v-39h-799q10 -145 106 -243q96 -99 264 -99t292 127l73 -100q-157 -154 -387 -154q-230 1 -370 145q-142 144 -142 368zM258 559h649q-2 125 -86 226t-235 101q-150 0 -236 -100t-92 -227zM279 1237 q0 39 27 67q28 28 68 28t68 -28t27 -67q0 -39 -28 -67q-29 -28 -67 -28t-67 28t-28 67zM702 1237q0 39 28 67t68 28t68 -28t27 -67q0 -39 -29 -67q-30 -28 -68 -28t-66 28t-28 67z" />
<glyph unicode="&#xec;" horiz-adv-x="460" d="M-98 1434h159l304 -295h-117zM154 0v989h153v-989h-153z" />
<glyph unicode="&#xed;" horiz-adv-x="460" d="M96 1139l303 295h160l-346 -295h-117zM154 0v989h153v-989h-153z" />
<glyph unicode="&#xee;" horiz-adv-x="460" d="M-39 1139l195 295h147l201 -295h-105l-170 217l-163 -217h-105zM154 0v989h153v-989h-153z" />
<glyph unicode="&#xef;" horiz-adv-x="460" d="M-76 1237q0 39 28 67t68 28t67 -28q28 -28 28 -67t-28 -67t-67 -28q-40 0 -68 28t-28 67zM154 0v989h153v-989h-153zM348 1237q0 39 28 67t68 28t67 -28q28 -28 28 -67t-29 -67t-68 -28q-38 0 -66 28t-28 67z" />
<glyph unicode="&#xf0;" d="M96 479q0 217 127 359t326 143q199 0 321 -180q-102 184 -327 348l-293 -131l-37 86l242 106q-87 53 -154 99l84 127q137 -84 229 -156l222 98l34 -84l-176 -77q381 -324 381 -711q0 -234 -133 -382t-354 -148q-220 0 -356 142q-136 144 -136 361zM258 478 q0 -153 88 -259t240 -106t240 106t87 259q0 153 -88 259q-87 107 -239 107t-240 -106t-88 -260z" />
<glyph unicode="&#xf1;" horiz-adv-x="1130" d="M160 0v989h153v-143q57 70 153 119t202 49q313 0 313 -320v-694h-152v647q1 227 -211 229q-98 0 -178 -44q-80 -46 -127 -109v-723h-153zM246 1147q0 123 52 199t146 75q49 1 87 -29q37 -30 57 -65q52 -94 102 -94q49 0 77 44t28 132h92q0 -123 -52 -199 q-53 -75 -147 -75q-49 -1 -87 29t-57 65q-51 94 -101 94q-105 0 -105 -176h-92z" />
<glyph unicode="&#xf2;" d="M96 496q0 221 134 369q134 149 356 149t355 -148q134 -148 134 -370q0 -221 -134 -371t-355 -150t-356 150q-134 150 -134 371zM258 496q0 -160 88 -272t240 -111q152 -1 240 111t87 272q0 160 -88 270q-87 110 -239 111q-152 0 -240 -111q-88 -110 -88 -270zM258 1434 h160l303 -295h-117z" />
<glyph unicode="&#xf3;" d="M96 496q0 221 134 369q134 149 356 149t355 -148q134 -148 134 -370q0 -221 -134 -371t-355 -150t-356 150q-134 150 -134 371zM258 496q0 -160 88 -272t240 -111q152 -1 240 111t87 272q0 160 -88 270q-87 110 -239 111q-152 0 -240 -111q-88 -110 -88 -270zM451 1139 l303 295h159l-346 -295h-116z" />
<glyph unicode="&#xf4;" d="M96 496q0 221 134 369q134 149 356 149t355 -148q134 -148 134 -370q0 -221 -134 -371t-355 -150t-356 150q-134 150 -134 371zM258 496q0 -160 88 -272t240 -111q152 -1 240 111t87 272q0 160 -88 270q-87 110 -239 111q-152 0 -240 -111q-88 -110 -88 -270zM317 1139 l195 295h147l201 -295h-104l-170 217l-164 -217h-105z" />
<glyph unicode="&#xf5;" d="M96 496q0 221 134 369q134 149 356 149t355 -148q134 -148 134 -370q0 -221 -134 -371t-355 -150t-356 150q-134 150 -134 371zM258 496q0 -160 88 -272t240 -111q152 -1 240 111t87 272q0 160 -88 270q-87 110 -239 111q-152 0 -240 -111q-88 -110 -88 -270zM266 1147 q0 123 52 199t147 75q49 1 87 -29t57 -65q51 -94 101 -94q105 0 105 176h92q0 -123 -52 -199t-146 -75q-49 -1 -87 29t-58 65q-51 94 -101 94q-49 0 -77 -44t-28 -132h-92z" />
<glyph unicode="&#xf6;" d="M96 496q0 221 134 369q134 149 356 149t355 -148q134 -148 134 -370q0 -221 -134 -371t-355 -150t-356 150q-134 150 -134 371zM258 496q0 -160 88 -272t240 -111q152 -1 240 111t87 272q0 160 -88 270q-87 110 -239 111q-152 0 -240 -111q-88 -110 -88 -270zM279 1237 q0 39 27 67q28 28 68 28t68 -28t27 -67q0 -39 -28 -67q-29 -28 -67 -28t-67 28t-28 67zM702 1237q0 39 28 67t68 28t68 -28t27 -67q0 -39 -29 -67q-30 -28 -68 -28t-66 28t-28 67z" />
<glyph unicode="&#xf7;" horiz-adv-x="1046" d="M59 637v106h928v-106h-928zM430 295q0 39 28 67t66 27q38 1 66 -27t28 -67t-28 -67t-66 -28t-66 28t-28 67zM430 1080q0 38 28 65t66 27t67 -27q27 -27 27 -66t-28 -67t-66 -29q-38 0 -66 29q-28 30 -28 68z" />
<glyph unicode="&#xf8;" d="M96 494q0 224 134 371q134 148 356 149q162 0 280 -84l47 59h113l-92 -117q141 -147 141 -372t-134 -375t-355 -150q-170 0 -291 93l-53 -68h-111l98 125q-133 145 -133 369zM258 502q0 -154 70 -254l446 567q-78 61 -188 62q-152 -1 -240 -111t-88 -264zM385 182 q82 -69 201 -69q152 -1 240 111t87 268q0 156 -77 258z" />
<glyph unicode="&#xf9;" horiz-adv-x="1128" d="M154 291v698h153v-651q0 -225 212 -225q97 0 177 43t125 106v727h154v-989h-154v139q-61 -71 -154 -117t-198 -47q-315 0 -315 316zM242 1434h159l304 -295h-117z" />
<glyph unicode="&#xfa;" horiz-adv-x="1128" d="M154 291v698h153v-651q0 -225 212 -225q97 0 177 43t125 106v727h154v-989h-154v139q-61 -71 -154 -117t-198 -47q-315 0 -315 316zM432 1139l303 295h160l-346 -295h-117z" />
<glyph unicode="&#xfb;" horiz-adv-x="1128" d="M154 291v698h153v-651q0 -225 212 -225q97 0 177 43t125 106v727h154v-989h-154v139q-61 -71 -154 -117t-198 -47q-315 0 -315 316zM295 1139l194 295h148l201 -295h-105l-170 217l-164 -217h-104z" />
<glyph unicode="&#xfc;" horiz-adv-x="1128" d="M154 291v698h153v-651q0 -225 212 -225q97 0 177 43t125 106v727h154v-989h-154v139q-61 -71 -154 -117t-198 -47q-315 0 -315 316zM264 1237q0 39 28 67t68 28t67 -28q28 -28 28 -67t-28 -67t-67 -28q-40 0 -68 28t-28 67zM688 1237q0 39 28 67t68 28t67 -28 q28 -28 28 -67t-29 -67t-68 -28q-38 0 -66 28t-28 67z" />
<glyph unicode="&#xfd;" horiz-adv-x="1003" d="M6 989h168l328 -811l329 811h166l-495 -1190q-82 -197 -291 -200q-64 0 -111 14l23 139q37 -16 87 -16t85 22t59 82l66 150zM369 1139l303 295h159l-346 -295h-116z" />
<glyph unicode="&#xfe;" d="M154 -377v1743h153v-524q55 78 143 125t191 47q197 0 319 -140t121 -378q1 -238 -121 -380t-322 -141q-200 0 -331 175v-527h-153zM307 272q41 -68 124 -114t171 -45q145 0 232 107q86 108 86 276t-86 274t-232 107q-88 -1 -171 -47t-124 -111v-447z" />
<glyph unicode="&#xff;" horiz-adv-x="1003" d="M6 989h168l328 -811l329 811h166l-495 -1190q-82 -197 -291 -200q-64 0 -111 14l23 139q37 -16 87 -16t85 22t59 82l66 150zM195 1237q0 39 27 67q28 28 68 28t68 -28t27 -67q0 -39 -28 -67q-29 -28 -67 -28t-67 28t-28 67zM618 1237q0 39 28 67t68 28t68 -28t27 -67 q0 -39 -29 -67q-30 -28 -68 -28t-66 28t-28 67z" />
<glyph unicode="&#x152;" horiz-adv-x="2263" d="M104 682q0 305 184 505t480 199q150 0 283 -70t206 -198v248h895v-152h-725v-440h711v-151h-711v-471h725v-152h-895v248q-75 -131 -207 -202t-282 -71q-295 0 -479 201t-185 506zM281 682q0 -242 138 -398t369 -157q160 0 285 85t184 247v448q-59 160 -183 244t-286 84 q-231 0 -369 -155q-138 -156 -138 -398z" />
<glyph unicode="&#x153;" horiz-adv-x="1970" d="M96 496q0 221 134 369q134 149 357 149t358 -193q30 -43 50 -90q45 107 147 195t259 88q219 0 347 -151t128 -380v-39h-799q9 -145 105 -243q96 -99 265 -99t292 127l73 -100q-158 -154 -393 -154q-170 0 -272 85t-154 198q-127 -283 -407 -283q-221 0 -356 150 q-134 150 -134 371zM258 494q0 -162 89 -273t239 -111t238 112q88 110 89 273q0 163 -89 273q-88 110 -238 109q-150 0 -239 -110q-89 -111 -89 -273zM1075 559h651q-4 125 -88 226t-234 101t-236 -100t-93 -227z" />
<glyph unicode="&#x178;" horiz-adv-x="1282" d="M18 1366h199l424 -635l424 635h199l-537 -788v-578h-170v578zM340 1584q0 38 28 66t68 28t67 -28t27 -67t-28 -67t-66 -27q-40 0 -68 28q-28 29 -28 67zM764 1584q0 38 28 66t68 28t67 -28t27 -67t-28 -67t-68 -27q-38 0 -66 28q-28 29 -28 67z" />
<glyph unicode="&#x2c6;" horiz-adv-x="542" d="M0 1139l195 295h147l201 -295h-105l-170 217l-164 -217h-104z" />
<glyph unicode="&#x2dc;" horiz-adv-x="641" d="M0 1147q0 123 52 199t147 75q49 1 87 -29t57 -65q51 -94 101 -94q105 0 105 176h92q0 -123 -52 -199q-53 -75 -147 -75q-49 -1 -87 29t-57 65q-51 94 -101 94q-105 0 -105 -176h-92z" />
<glyph unicode="&#x2000;" horiz-adv-x="911" />
<glyph unicode="&#x2001;" horiz-adv-x="1822" />
<glyph unicode="&#x2002;" horiz-adv-x="911" />
<glyph unicode="&#x2003;" horiz-adv-x="1822" />
<glyph unicode="&#x2004;" horiz-adv-x="607" />
<glyph unicode="&#x2005;" horiz-adv-x="455" />
<glyph unicode="&#x2006;" horiz-adv-x="303" />
<glyph unicode="&#x2007;" horiz-adv-x="303" />
<glyph unicode="&#x2008;" horiz-adv-x="227" />
<glyph unicode="&#x2009;" horiz-adv-x="364" />
<glyph unicode="&#x200a;" horiz-adv-x="101" />
<glyph unicode="&#x2010;" horiz-adv-x="614" d="M61 428v135h492v-135h-492z" />
<glyph unicode="&#x2011;" horiz-adv-x="614" d="M61 428v135h492v-135h-492z" />
<glyph unicode="&#x2012;" horiz-adv-x="614" d="M61 428v135h492v-135h-492z" />
<glyph unicode="&#x2013;" horiz-adv-x="1214" d="M61 428v135h1092v-135h-1092z" />
<glyph unicode="&#x2014;" horiz-adv-x="1705" d="M61 428v135h1584v-135h-1584z" />
<glyph unicode="&#x2018;" horiz-adv-x="471" d="M98 1088q0 81 46 164t118 134l78 -61q-49 -33 -88 -87t-45 -103l29 4q42 0 70 -30t28 -76t-32 -78q-32 -31 -81 -31t-86 42t-37 122z" />
<glyph unicode="&#x2019;" horiz-adv-x="471" d="M117 985q49 33 88 87t45 104q-8 -4 -39 -4t-59 29q-28 30 -29 75q0 45 32 78q31 32 81 32t88 -41q36 -42 36 -123t-46 -164t-119 -136z" />
<glyph unicode="&#x201a;" horiz-adv-x="471" d="M117 -197q51 33 89 87t44 104q-8 -4 -39 -4t-59 30t-29 74q0 45 32 78q31 33 81 33t87 -42t37 -123t-46 -164t-119 -136z" />
<glyph unicode="&#x201c;" horiz-adv-x="798" d="M111 1088q0 81 46 164t119 134l76 -61q-49 -33 -87 -87t-44 -103q20 4 27 4q44 0 72 -30t28 -76t-33 -78q-33 -31 -81 -31t-86 42q-37 42 -37 122zM438 1088q0 81 46 164t120 134l76 -61q-49 -33 -87 -87t-44 -103l26 4q43 0 72 -30t29 -76t-33 -78q-33 -31 -82 -31 t-86 42t-37 122z" />
<glyph unicode="&#x201d;" horiz-adv-x="798" d="M117 985q49 33 88 87t45 104q-8 -4 -39 -4t-59 29q-28 30 -29 75q0 45 32 78q31 32 81 32t88 -41q36 -42 36 -123t-46 -164t-119 -136zM446 985q49 33 88 87q38 54 44 104q-4 -4 -37 -4t-62 29q-29 30 -28 75q0 45 32 78q33 32 82 32t86 -42t37 -122q0 -81 -46 -164 t-120 -136z" />
<glyph unicode="&#x201e;" horiz-adv-x="798" d="M117 -197q51 33 89 87t44 104q-8 -4 -39 -4t-59 30t-29 74q0 45 32 78q31 33 81 33t87 -42t37 -123t-46 -164t-119 -136zM446 -197q49 33 88 87q38 54 44 104q-4 -4 -37 -4t-62 30t-28 74q0 45 32 78q33 33 82 33t86 -42t37 -123t-46 -164t-120 -136z" />
<glyph unicode="&#x2022;" horiz-adv-x="733" d="M147 496q0 90 66 156t156 65q89 1 155 -65t66 -156t-66 -155t-156 -65t-155 65q-66 65 -66 155z" />
<glyph unicode="&#x2026;" horiz-adv-x="1415" d="M123 93q0 46 33 79t80 33q48 0 80 -33t32 -79t-34 -80q-34 -33 -78 -33t-79 34q-34 34 -34 79zM594 93q0 46 33 79t80 33t79 -33t33 -79q0 -46 -34 -80q-35 -33 -79 -33t-78 34t-34 79zM1067 93q0 46 34 79t79 33q46 0 78 -33t32 -79t-33 -80q-33 -33 -77 -33t-79 34 q-34 34 -34 79z" />
<glyph unicode="&#x202f;" horiz-adv-x="364" />
<glyph unicode="&#x2039;" horiz-adv-x="604" d="M61 498l328 362h154l-328 -362l328 -369h-154z" />
<glyph unicode="&#x203a;" horiz-adv-x="604" d="M61 129l328 369l-328 362h154l328 -362l-328 -369h-154z" />
<glyph unicode="&#x205f;" horiz-adv-x="455" />
<glyph unicode="&#x20ac;" horiz-adv-x="1423" d="M63 485v107h91q-4 57 -4 90t4 94h-91v109h113q62 229 246 366t430 138q330 0 518 -271l-141 -80q-59 90 -161 144t-216 55q-174 0 -307 -95t-189 -257h619v-109h-643q-6 -47 -6 -94t6 -90h643v-107h-619q54 -164 188 -261t308 -97q115 0 216 55t161 144l143 -78 q-198 -273 -520 -273q-248 1 -433 139t-245 371h-111z" />
<glyph unicode="&#x2122;" horiz-adv-x="929" d="M35 1313v53h311v-53h-127v-398h-57v398h-127zM420 915v451h88l131 -328l131 328h88v-451h-57v373l-154 -373h-16l-154 373v-373h-57z" />
<glyph unicode="&#x25fc;" horiz-adv-x="990" d="M0 0v990h990v-990h-990z" />
</font>
</defs>
</svg>
